Enable / Włącz Javascript
 Widok 
 Kategorie 
 Nitro Torrent w sieci 
 Top 10 użytkowników 
 Życie Pi Life of Pi *2012* [720p TS XViD AC3] [ENG]

Życie Pi Life of Pi *2012* [720p TS XViD AC3] [ENG]
Kategoria: » » »
Dodane: 03/10/2017
Rozmiar: 3.04 GB
Uploader: suggestguide.review❱ Wędrowiec
seed(ów): 0
leecher(ów): 0
Pobrane: 1
Komentarzy: 0
Pobierz Torrent Pobierz Torrent
Pobierz [Magnet] Pobierz [Magnet]

Obserwuj
Raportuj
Gatunek: Dramat Przygodowy
Produkcja: USA
Premiera: 11 stycznia 2013 (Polska) 28 września 2012 (świat)
Reżyseria: Ang Lee
Scenariusz: David Magee
Czas Trwania: 2h 5mn

Opis:
Ekranizacja bestsellerowej powieści Yanna Martela. Pi Patel, syn właściciela zoo, mieszka wraz z rodziną w Indiach. Wkrótce życie postawi przed nim wyzwanie, które będzie wymagało od niego niezwykłej determinacji. Rodzina Pi postanawia przenieść się do Kanady. W trakcie podróży statek ulega uszkodzeniu i tonie. Pi znajduje się w niewielkiej szalupie na środku Oceanu Spokojnego w towarzystwie hieny, orangutana, zebry i tygrysa bengalskiego o imieniu Richard Parker. Rozpoczyna się walka o przetrwanie.

OBSADA:

Suraj Sharma .... Pi Patel
Irrfan Khan .... Dorosły Pi Patel
Tabu .... Gita Patel
Adil Hussain .... Santosh Patel
Gérard Depardieu .... Kucharz


Dane techniczne:

SUBS : Hard Coded English for MOST foreign speaking parts..



     

Format                                   : AVI
Format/Info                              : Audio Video Interleave
Format profile                           : OpenDML
File size                                : 3.01 GiB
Duration                                 : 2h 4mn
Overall bit rate                         : 3 464 Kbps
Writing library                          : VirtualDub build 32839/release

Video
ID                                       : 0
Format                                   : MPEG-4 Visual
Format profile                           : Advanced Simple@L5
Format settings, BVOP                    : 2
Format settings, QPel                    : Yes
Format settings, GMC                     : No warppoints
Format settings, Matrix                  : Default (H.263)
Muxing mode                              : Packed bitstream
Codec ID                                 : XVID
Codec ID/Hint                            : XviD
Duration                                 : 2h 4mn
Bit rate                                 : 3 006 Kbps
Width                                    : 1 280 pixels
Height                                   : 688 pixels
Display aspect ratio                     : 1.85:1
Frame rate                               : 25.000 fps
Color space                              : YUV
Chroma subsampling                       : 4:2:0
Bit depth                                : 8 bits
Scan type                                : Progressive
Compression mode                         : Lossy
Bits/(Pixel*Frame)                       : 0.137
Stream size                              : 2.61 GiB (87%)
Writing library                          : XviD 64

Audio
ID                                       : 1
Format                                   : AC-3
Format/Info                              : Audio Coding 3
Mode extension                           : CM (complete main)
Format settings, Endianness              : Big
Codec ID                                 : 2000
Duration                                 : 2h 4mn
Bit rate mode                            : Constant
Bit rate                                 : 448 Kbps
Channel(s)                               : 6 channels
Channel positions                        : Front: L C R, Side: L R, LFE
Sampling rate                            : 44.1 KHz
Bit depth                                : 16 bits
Compression mode                         : Lossy
Stream size                              : 399 MiB (13%)
Alignment                                : Split accross interleaves
Interleave, duration                     : 40 ms (1.00 video frame)
Interleave, preload duration             : 500 ms


Dostępne napisy
Brak napisów
Szczegóły torrenta
Tracker http://fr33dom.h33t.com:3310/announce
Kategoria: » » » [Zgłoś błąd]
Dodane 03-10-2017
Podziękowali:
0 użytkowników 
Podziękuj!
Pokaż / Ukryj pliki:
Nazwa pliku Rozmiar
nowosci.url.bc! 0.50 KB
kodek.txt.bc! 6.00 KB
Up.By.MQ.txt 0.46 KB
Sample.avi 33.12 MB
Life.of.Pi.2012.720p.TS.XViD.AC3-26k.avi 3.01 GB
5 plików
Brak komentarzy...