Enable / Włącz Javascript
 Widok 
 Kategorie 
 Nitro Torrent w sieci 
 Top 10 użytkowników 
 Wacken 3D - Louder than Hell *2014* [mini-HD.1080p.3D.Half.Over-Under.AC3.PLSUBBED.BluRay.x264-SONDA] [ENG] [AT-TEAM]

Wacken 3D - Louder than Hell *2014* [mini-HD.1080p.3D.Half.Over-Under.AC3.PLSUBBED.BluRay.x264-SONDA] [ENG] [AT-TEAM]
Kategoria: » » »
Dodane: 03/10/2017
Rozmiar: 3.88 GB
Uploader: suggestguide.review❱ Wędrowiec
seed(ów): 0
leecher(ów): 0
Pobrane: 3
Komentarzy: 0
Pobierz Torrent Pobierz Torrent
Pobierz [Magnet] Pobierz [Magnet]

Obserwuj
Raportuj
Film w wersji 3D Over-Under.
Do odtworzenia filmu WYMAGANY odpowiedni sprzęt (TV 3D)
=================================================
UWAGA: Napisy na stałe wtopione w film. Zapraszam Wszystkich chętnych !!!!!!!
======================================================


Kopia mini-HD 1080p = 3,87 GB


[Oryginalny obrazek]


gatunek: Dokumentalny,Muzyczny
premiera: 24 lipca 2014 (świat)
reżyseria: Norbert Heitker
scenariusz: Norbert Heitker,Jan-Hinrik Drevs


http://www.imdb.com/title/tt3830598/
http://www.filmweb.pl/film?id=715335

Obsada:

Rammstein
Alice Cooper
Deep Purple
Band
Mot??rhead

Storyline:

'WACKEN 3D - louder than hell', a no holds barred exploration of the legendary Wacken Open Air, the biggest heavy metal festival of the world, will shoot in July and August this year. Director Nobert Heitker's feature doc, shot by Producer and Director of Photography Tomas Erhart in stereoscopic, "true" 3D will give audiences a chance to experience Wacken - the fans, the music, the unique atmosphere - in the most intimate way. Wacken is a true one-off. Beyond description. Every year, for three days in August, a sleepy farming village in the middle of the Northern German countryside becomes the epicenter of the metal universe. Almost 75,000 metal heads from around the globe invade the Wacken Open Air to pay homage to the greatest bands of the international metal scene. The first Wacken Open Air in 1990 attracted less than 800 attendees but since then it has grown every year. Now it is the biggest open air festival of its kind. Tickets are sold out within days - long before all of the ...

Opis:

Dokument prezentuje jeden z najpopularniejszych niemieckich festiwali muzycznych, który co roku przyciąga wielu fanów metalu i rocka.

Screenshots:

[Oryginalny obrazek]
[Oryginalny obrazek]
[Oryginalny obrazek]
[Oryginalny obrazek]


General
Format                      : Matroska
Format version              : Version 2
File size                   : 3.88 GiB
Duration                    : 1h 35mn
Overall bit rate mode       : Variable
Overall bit rate            : 5 785 Kbps
Movie name                  : WACKEN_3D.2014.Bluray3D Rip by Sonda [AT-Team]
Encoded date                : UTC 2015-03-29 10:10:34
Writing application         : mkvmerge v5.7.0 ('The Whirlwind') built on Jul  8 2012 20:08:51
Writing library             : libebml v1.2.3 + libmatroska v1.3.0

Video
ID                          : 1
Format                      : AVC
Format/Info                 : Advanced Video Codec
Format profile              : High@L4.1
Format settings, CABAC      : Yes
Format settings, ReFrames   : 2 frames
Codec ID                    : V_MPEG4/ISO/AVC
Duration                    : 1h 35mn
Bit rate mode               : Variable
Bit rate                    : 5 222 Kbps
Maximum bit rate            : 7 953 Kbps
Width                       : 1 920 pixels
Height                      : 1 080 pixels
Display aspect ratio        : 2.40:1
Frame rate mode             : Constant
Frame rate                  : 23.976 fps
Color space                 : YUV
Chroma subsampling          : 4:2:0
Bit depth                   : 8 bits
Scan type                   : Progressive
Bits/(Pixel*Frame)          : 0.105
Stream size                 : 3.50 GiB (90%)
Title                       : Rip by Sonda subbedPL
Default                     : Yes
Forced                      : No

Audio
ID                          : 2
Format                      : AC-3
Format/Info                 : Audio Coding 3
Mode extension              : CM (complete main)
Format settings, Endianness : Big
Codec ID                    : A_AC3
Duration                    : 1h 35mn
Bit rate mode               : Constant
Bit rate                    : 448 Kbps
Channel(s)                  : 6 channels
Channel positions           : Front: L C R, Side: L R, LFE
Sampling rate               : 48.0 KHz
Bit depth                   : 16 bits
Compression mode            : Lossy
Stream size                 : 308 MiB (8%)
Title                       : AC3 5.1 ENG
Language                    : English
Default                     : Yes
Forced                      : No

Menu
00:00:00.000                : en:(01)00:00:00:000
00:05:00.000                : en:(02)00:05:00:000
00:10:00.000                : en:(03)00:10:00:000
00:15:00.000                : en:(04)00:15:00:000
00:20:00.000                : en:(05)00:20:00:000
00:25:00.000                : en:(06)00:25:00:000
00:30:00.000                : en:(07)00:30:00:000
00:35:00.000                : en:(08)00:35:00:000
00:40:00.000                : en:(09)00:40:00:000
00:45:00.000                : en:(10)00:45:00:000
00:50:00.000                : en:(11)00:50:00:000
00:55:00.000                : en:(12)00:55:00:000
01:00:00.000                : en:(13)01:00:00:000
01:05:00.000                : en:(14)01:05:00:000
01:10:00.000                : en:(15)01:10:00:000
01:15:00.000                : en:(16)01:15:00:000
01:20:00.000                : en:(17)01:20:00:000
01:25:00.000                : en:(18)01:25:00:000
01:30:00.000                : en:(19)01:30:00:000
01:35:00.000                : en:(20)01:35:00:000


Source:
A/V-BD3D






Dostępne napisy
Brak napisów
Szczegóły torrenta
Tracker http://tracker.aletorrenty.pl:2710/announce
Multitracker [ Pokaż ]
Kategoria: » » » [Zgłoś błąd]
Dodane 03-10-2017
Podziękowali:
0 użytkowników 
Podziękuj!
Pokaż / Ukryj pliki:
Nazwa pliku Rozmiar
info/Torrent downloaded from sonda torrents at aletorrenty.pl.txt 0.38 KB
info/Torrent downloaded from -sonda torrents at torrentgarden.com.txt 0.36 KB
info/Torrent downloaded from Sonda torrents at BTS.to.txt 0.11 KB
info/Torrent downloaded from sonda000 torrents at demonoid.ph.txt 0.02 KB
WACKEN_3D.2014.miniHD.1080p.subbedPL(Sonda).mkv 3.88 GB
149174_cxxposter_2_gross.jpg 226.88 KB
Upload by Sonda [AT-TEAM].jpg 45.62 KB
Read iNFO.txt 2.07 KB
Ale Torrenty Team enjoy !.url 0.11 KB
9 plików
Brak komentarzy...