Enable / Włącz Javascript
 Widok 
 Kategorie 
 Nitro Torrent w sieci 
 Top 10 użytkowników 
 Ukryte Światy 3D: Jaskinie Umarłych - Hidden Worlds 3D: Caves of the Dead *2013* [mini-HD.1080p.3D.Half.Over-Under.AC3.PLSUBBED.BluRay.x264-SONDA] [ENG] [AT-TEAM]

Ukryte Światy 3D: Jaskinie Umarłych - Hidden Worlds 3D: Caves of the Dead *2013* [mini-HD.1080p.3D.Half.Over-Under.AC3.PLSUBBED.BluRay.x264-SONDA] [ENG] [AT-TEAM]
Kategoria: » » »
Dodane: 03/10/2017
Rozmiar: 3.90 GB
Uploader: suggestguide.review❱ Wędrowiec
seed(ów): 0
leecher(ów): 0
Pobrane: 6
Komentarzy: 0
Pobierz Torrent Pobierz Torrent
Pobierz [Magnet] Pobierz [Magnet]

Obserwuj
Raportuj


Film w wersji 3D Over-Under.
Do odtworzenia filmu WYMAGANY odpowiedni sprzęt (TV 3D)
===========================================
UWAGA: Napisy na stałe wtopione w film. Zapraszam Wszystkich chętnych !!!!!!!
=====================================================

Kopia mini-HD 1080p = 3,89 GB

gatunek: Dokumentalny, Przygodowy
produkcja: Germany, Mexic
reżyseria: Norbert Vander
scenariusz: Norbert Vander

http://www.imdb.com/title/tt3105370/
http://www.filmweb.pl/film?id=696025

Obsada:

Christian Howe
Florian Huber
Uli Kunz

Opis:

Dokument ukazuje podziemny system jaskiń na Jukatanie, który odegrał ważną rolę w mitologii Majów.

Storyline:

In the days of the Mayas, cenotes ? deep, natural pits on the Yucatan peninsula - provided the only means of obtaining drinking water. But in the mythology of this advanced civilisation, these waterholes and caves were also the entrance to Xibalba ? the underworld,four professional divers dive into the underwater caves of the Yucatan...

Screenshots:



[Oryginalny obrazek]



General
Format                      : Matroska
Format version              : Version 2
File size                   : 3.90 GiB
Duration                    : 1h 33mn
Overall bit rate mode       : Variable
Overall bit rate            : 5 963 Kbps
Movie name                  : Hidden_Worlds.Caves_of_the_Dead_3D.2013.Bluray3D Rip by Sonda [AT-Team]
Encoded date                : UTC 2015-04-22 09:41:07
Writing application         : mkvmerge v5.7.0 ('The Whirlwind') built on Jul  8 2012 20:08:51
Writing library             : libebml v1.2.3 + libmatroska v1.3.0

Video
ID                          : 1
Format                      : AVC
Format/Info                 : Advanced Video Codec
Format profile              : High@L4.1
Format settings, CABAC      : Yes
Format settings, ReFrames   : 2 frames
Codec ID                    : V_MPEG4/ISO/AVC
Duration                    : 1h 33mn
Bit rate mode               : Variable
Bit rate                    : 5 396 Kbps
Maximum bit rate            : 8 179 Kbps
Width                       : 1 920 pixels
Height                      : 1 080 pixels
Display aspect ratio        : 1.78:1
Frame rate mode             : Constant
Frame rate                  : 23.976 fps
Color space                 : YUV
Chroma subsampling          : 4:2:0
Bit depth                   : 8 bits
Scan type                   : Progressive
Bits/(Pixel*Frame)          : 0.109
Stream size                 : 3.53 GiB (90%)
Title                       : Rip by Sonda subbedPL
Default                     : Yes
Forced                      : No

Audio
ID                          : 2
Format                      : AC-3
Format/Info                 : Audio Coding 3
Mode extension              : CM (complete main)
Format settings, Endianness : Big
Codec ID                    : A_AC3
Duration                    : 1h 33mn
Bit rate mode               : Constant
Bit rate                    : 448 Kbps
Channel(s)                  : 6 channels
Channel positions           : Front: L C R, Side: L R, LFE
Sampling rate               : 48.0 KHz
Compression mode            : Lossy
Stream size                 : 300 MiB (8%)
Title                       : AC3 5.1 ENG
Language                    : English
Default                     : Yes
Forced                      : No

Menu
00:00:00.000                : en:(01)00:00:00:000
00:05:00.000                : en:(02)00:05:00:000
00:10:00.000                : en:(03)00:10:00:000
00:15:00.000                : en:(04)00:15:00:000
00:20:00.000                : en:(05)00:20:00:000
00:25:00.000                : en:(06)00:25:00:000
00:30:00.000                : en:(07)00:30:00:000
00:35:00.000                : en:(08)00:35:00:000
00:40:00.000                : en:(09)00:40:00:000
00:45:00.000                : en:(10)00:45:00:000
00:50:00.000                : en:(11)00:50:00:000
00:55:00.000                : en:(12)00:55:00:000
01:00:00.000                : en:(13)01:00:00:000
01:05:00.000                : en:(14)01:05:00:000
01:10:00.000                : en:(15)01:10:00:000
01:15:00.000                : en:(16)01:15:00:000
01:20:00.000                : en:(17)01:20:00:000
01:25:00.000                : en:(18)01:25:00:000
01:30:00.000                : en:(19)01:30:00:000

Source:
A/V-BDRemux 2D/3D




Dostępne napisy
Brak napisów
Szczegóły torrenta
Tracker http://tracker.aletorrenty.pl:2710/announce
Multitracker [ Pokaż ]
Kategoria: » » » [Zgłoś błąd]
Dodane 03-10-2017
Podziękowali:
0 użytkowników 
Podziękuj!
Pokaż / Ukryj pliki:
Nazwa pliku Rozmiar
info/Torrent downloaded from sonda torrents at aletorrenty.pl.txt 0.38 KB
info/Torrent downloaded from sonda torrents at torrentgarden.net.txt 0.22 KB
info/Torrent downloaded from Sonda torrents at BTS.to.txt 0.11 KB
info/Torrent downloaded from Sonda torrents at AhaShare.com.txt 0.06 KB
info/Torrent downloaded from sonda torrents at h33t.to.txt 0.04 KB
info/Torrent downloaded from sonda000 torrents at demonoid.ph.txt 0.02 KB
Hidden_Worlds.Caves_of_the_Dead_3D.2013.miniHD.1080p.H-OU.subbedPL(Sonda).mkv 3.90 GB
11060806-1418992938-279787.jpg 208.21 KB
Upload by Sonda [AT-TEAM].jpg 45.62 KB
Read iNFO.txt 2.07 KB
Ale Torrenty Team enjoy !.url 0.11 KB
11 plików
Brak komentarzy...