Enable / Włącz Javascript
 Widok 
 Kategorie 
 Nitro Torrent w sieci 
 Top 10 użytkowników 
 Tarzan: Legenda The Legend of Tarzan *2016* [HDTS.XviD-VAiN] [ENG]

Tarzan: Legenda The Legend of Tarzan *2016* [HDTS.XviD-VAiN] [ENG]
Kategoria: » » »
Dodane: 03/10/2017
Rozmiar: 1.48 GB
Uploader: suggestguide.review❱ Wędrowiec
seed(ów): 0
leecher(ów): 0
Pobrane: 1
Komentarzy: 0
Pobierz Torrent Pobierz Torrent
Pobierz [Magnet] Pobierz [Magnet]

Obserwuj
Raportuj
Tytuł: The Legend of Tarzan / Tarzan: Legenda
Ocena: IMDB - 7.1/10 (7793), Filmweb - 6.6/10 (1966)
Produkcja: USA
Gatunek: Przygodowy
Czas trwania: 109 min.
Premiera: 01.07.2016 - Polska, 30.06.2016 - Świat
Reżyseria: David Yates
Scenariusz: Craig Brewer, Adam Cozad


Alexander Skarsg?rd,
Samuel L. Jackson,
Margot Robbie,
Djimon Hounsou,
Christoph Waltz,
Jim Broadbent


Tarzan powraca do Kongo, aby stawić czoło kapitanowi Romowi. (filmweb.pl)


Basic Information
Format : AVI
Format/Info : Audio Video Interleave
File size : 1.47 GiB
Duration : 1h 45mn
Overall bit rate : 1 990 Kbps
Writing application : VirtualDubMod 1.5.10.2 (build 2540/release)
Writing library : VirtualDubMod build 2540/release

Video
ID : 0
Format : MPEG-4 Visual
Format profile : Advanced [email protected]
Format settings, BVOP : 2
Format settings, QPel : No
Format settings, GMC : No warppoints
Format settings, Matrix : Default (H.263)
Muxing mode : Packed bitstream
Codec ID : XVID
Codec ID/Hint : XviD
Duration : 1h 45mn
Bit rate : 1 786 Kbps
Width : 720 pixels
Height : 304 pixels
Display aspect ratio : 2.35:1
Frame rate : 30.000 fps
Color space : YUV
Chroma subsampling : 4:2:0
Bit depth : 8 bits
Scan type : Progressive
Compression mode : Lossy
Bits/(Pixel*Frame) : 0.272
Stream size : 1.32 GiB (90%)
Writing library : XviD 64

Audio
ID : 1
Format : MPEG Audio
Format version : Version 1
Format profile : Layer 3
Mode : Joint stereo
Mode extension : MS Stereo
Codec ID : 55
Codec ID/Hint : MP3
Duration : 1h 45mn
Bit rate mode : Constant
Bit rate : 192 Kbps
Channel(s) : 2 channels
Sampling rate : 48.0 KHz
Compression mode : Lossy
Stream size : 145 MiB (10%)
Alignment : Aligned on interleaves
Interleave, duration : 33 ms (1.00 video frame)
Interleave, preload duratio : 504 ms


E N C O D E R S . N O T E S . . .

SOURCE......: ViDEO...X264-CPG
............: AUDiO...X264-CPG
SAMPLE......: Yippers
ADDED NOTE..: Love Me.... Love You...
Took sum ol' poo-shine and polished this turd....

Dostępne napisy
Brak napisów
Szczegóły torrenta
Tracker udp://tracker.coppersurfer.tk:6969/announce
Multitracker [ Pokaż ]
Kategoria: » » » [Zgłoś błąd]
Dodane 03-10-2017
Podziękowali:
0 użytkowników 
Podziękuj!
Pokaż / Ukryj pliki:
Nazwa pliku Rozmiar
The.Legend.of.Tarzan.2016.HDTS.XviD-VAiN.avi 1.47 GB
Torrent Downloaded From ExtraTorrent.cc.txt 0.33 KB
VAiN.nfo 2.92 KB
sample.avi 12.85 MB
4 plików
Brak komentarzy...