Enable / Włącz Javascript
 Widok 
 Kategorie 
 Nitro Torrent w sieci 
 Top 10 użytkowników 
  Tajemnice Ukrytego Świata-Mysteries of the Unseen World 3D (2013)[BRRip 1080p x264 by alE13 AC3DTS] [Napisy PL] [ENG]

Tajemnice Ukrytego Świata-Mysteries of the Unseen World 3D (2013)[BRRip 1080p x264 by alE13 AC3DTS] [Napisy PL] [ENG]
Kategoria: » » »
Dodane: 03/10/2017
Rozmiar: 5.22 GB
Uploader: tomysparow559 (10)
seed(ów): 0
leecher(ów): 0
Pobrane: 20
Komentarzy: 0
Pobierz Torrent Pobierz Torrent
Pobierz [Magnet] Pobierz [Magnet]

Obserwuj
Raportuj
reżyseria: Louie Schwartzberg
scenariusz: Mose Richards
gatunek: Dokumentalny,Krótkometrażowy
produkcja: USA
premiera: 01-11-2013
czas:           39mn 7s

opis:

MYSTERIES OF THE UNSEEN WORLD transports audiences to places on this planet that they have never
been before, to see things that are beyond their normal vision, yet literally right in front of
their eyes. Mysteries of the Unseen World reveals phenomena that can't be seen with the naked eye,
taking audiences into earthly worlds secreted away in different dimensions of time and scale.
Viewers experience events that unfold too slowly for human perception; They "see" the beauty, drama,
and even humor of phenomena of that occur in the flash of a microsecond; They enter the microscopic
world that was once reserved only for scientists, but that Mysteries of the Unseen World.

Film przenosi widza do ukrytego świata tajemnic ukazując zjawiska, których nie można dostrzec
gołym okiem. Widzowie doświadczają wydarzeń, które rozwijają się zbyt wolno dla ludzkiej percepcji;
"Widzą" piękno, dramat, a nawet humor zjawisk, które występują w błysku mikrosekundy.

Click on image for full size view.

Click on image for full size view.

Click on image for full size view.

Click on image for full size view.


obsada:

Forest Whitaker (Narrator)

dane techniczne:

Mysteries Of The Unseen World 3D (2013)-alE13.mkv
Format                      : Matroska
Format version              : Version 4 / Version 2
File size                   : 5.14 GiB
Duration                    : 39mn 7s
Overall bit rate            : 18.8 Mbps
Movie name                  : Mysteries of the Unseen World 3D (2013)-alE13
Encoded date                : UTC 2016-06-04 18:30:05
Writing application         : mkvmerge v8.1.0 ('Psychedelic Postcard') 64bit
Writing library             : libebml v1.3.1 + libmatroska v1.4.2

Video
ID                          : 1
Format                      : AVC
Format/Info                 : Advanced Video Codec
Format profile              : High@L4.1
Format settings, CABAC      : Yes
Format settings, ReFrames   : 4 frames
Codec ID                    : V_MPEG4/ISO/AVC
Duration                    : 39mn 7s
Bit rate                    : 14.2 Mbps
Width                       : 1 920 pixels
Height                      : 1 080 pixels
Display aspect ratio        : 16:9
Frame rate mode             : Constant
Frame rate                  : 23.976 (24000/1001) fps
Color space                 : YUV
Chroma subsampling          : 4:2:0
Bit depth                   : 8 bits
Scan type                   : Progressive
Bits/(Pixel*Frame)          : 0.285
Stream size                 : 3.88 GiB (75%)
Title                       : Mysteries of the Unseen World 3D (2013)-alE13
Writing library             : x264 core 146 r2538 121396c
Default                     : Yes
Forced                      : No

Audio #1
ID                          : 2
Format                      : AC-3
Format/Info                 : Audio Coding 3
Mode extension              : CM (complete main)
Format settings, Endianness : Big
Codec ID                    : A_AC3
Duration                    : 39mn 7s
Bit rate mode               : Constant
Bit rate                    : 640 Kbps
Channel(s)                  : 6 channels
Channel positions           : Front: L C R, Side: L R, LFE
Sampling rate               : 48.0 KHz
Frame rate                  : 31.250 fps (1536 spf)
Compression mode            : Lossy
Stream size                 : 179 MiB (3%)
Title                       : Mysteries of the Unseen World 3D (2013)-alE13_AC3
Language                    : English
Default                     : No
Forced                      : No

Audio #2
ID                          : 3
Format                      : DTS
Format/Info                 : Digital Theater Systems
Mode                        : 16
Format settings, Endianness : Big
Codec ID                    : A_DTS
Duration                    : 39mn 7s
Bit rate mode               : Constant
Bit rate                    : 3 968 Kbps
Channel(s)                  : 6 channels
Channel positions           : Front: L C R, Side: L R, LFE
Sampling rate               : 48.0 KHz
Frame rate                  : 46.875 fps (1024 spf)
Bit depth                   : 16 bits
Compression mode            : Lossy
Stream size                 : 1.08 GiB (21%)
Title                       : Mysteries of the Unseen World 3D (2013)-alE13_DTS
Language                    : English
Default                     : Yes
Forced                      : No

Text #1
ID                          : 4
Format                      : VobSub
Muxing mode                 : zlib
Codec ID                    : S_VOBSUB
Codec ID/Info               : Picture based subtitle format used on DVDs
Duration                    : 35mn 59s
Bit rate                    : 9 225 bps
Count of elements           : 370
Stream size                 : 2.37 MiB (0%)
Title                       : Mysteries of the Unseen World 3D (2013)-alE13
Language                    : Polish
Default                     : Yes
Forced                      : No

Text #2
ID                          : 5
Format                      : VobSub
Muxing mode                 : zlib
Codec ID                    : S_VOBSUB
Codec ID/Info               : Picture based subtitle format used on DVDs
Duration                    : 35mn 49s
Bit rate                    : 8 037 bps
Count of elements           : 365
Stream size                 : 2.06 MiB (0%)
Title                       : Mysteries of the Unseen World 3D (2013)-alE13
Language                    : English
Default                     : No
Forced                      : No

Text #3
ID                          : 6
Format                      : UTF-8
Codec ID                    : S_TEXT/UTF8
Codec ID/Info               : UTF-8 Plain Text
Duration                    : 35mn 59s
Bit rate                    : 51 bps
Count of elements           : 370
Stream size                 : 13.7 KiB (0%)
Title                       : Mysteries of the Unseen World 3D (2013)-alE13
Language                    : Polish
Default                     : No
Forced                      : No

Text #4
ID                          : 7
Format                      : UTF-8
Codec ID                    : S_TEXT/UTF8
Codec ID/Info               : UTF-8 Plain Text
Duration                    : 35mn 49s
Bit rate                    : 47 bps
Count of elements           : 365
Stream size                 : 12.6 KiB (0%)
Title                       : Mysteries of the Unseen World 3D (2013)-alE13
Language                    : English
Default                     : No
Forced                      : No

Menu
00:00:00.000                : :1
00:04:17.090                : :2. Invisible Light
00:08:34.514                : :3. Too Slow
00:15:07.907                : :4. Too Fast
00:21:35.294                : :5. Too Small
00:29:46.910                : :6. NanoWorld
00:34:17.597                : :7
00:36:02.160                : :8. Credits

Dostępne napisy
Brak napisów
Szczegóły torrenta
Tracker http://tracker.aletorrenty.pl:2710/announce
Multitracker [ Pokaż ]
Kategoria: » » » [Zgłoś błąd]
Dodane 03-10-2017
Podziękowali:
0 użytkowników 
Podziękuj!
Pokaż / Ukryj pliki:
Nazwa pliku Rozmiar
info/Nostalgie.jpg 138.36 KB
info/2.jpg 102.41 KB
info/Torrent downloaded from alE13 torrents at BTScene.org.txt 0.12 KB
info/Torrent downloaded from demonoid.pw.txt 0.04 KB
info/Torrent downloaded from - www.aletorrenty.pl 0.04 KB
subbet/Mysteries of the Unseen World 3D (2013)-alE13.rar 3.20 MB
Mysteries Of The Unseen World 3D (2013)-alE13.mkv 5.14 GB
sample.mkv 77.09 MB
txt.jpg 140.53 KB
poster.jpg 123.97 KB
10 plików
Brak komentarzy...