Enable / Włącz Javascript
 Widok 
 Kategorie 
 Nitro Torrent w sieci 
 Top 10 użytkowników 
 Spider-Man Homecoming (2017) [CAM] [READNFO] [XViD-26k] [ENG]

Spider-Man Homecoming (2017) [CAM] [READNFO] [XViD-26k] [ENG]
Kategoria: » » »
Dodane: 11/07/2017
Rozmiar: 1.37 GB
Uploader: bater33 (1)
seed(ów): 419
leecher(ów): 65
Pobrane: 42
Komentarzy: 0
Pobierz Torrent Pobierz Torrent
Pobierz [Magnet] Pobierz [Magnet]

Obserwuj
Raportuj
...( Info )...

Produkcja: USA
Gatunek: Akcja, Sci-Fi
Premiera: 14 lipca 2017 (Polska), 28 czerwca 2017 (świat)
Reżyseria: Jon Watts
Scenariusz: John Francis Daley, Jonathan Goldstein, Jon Watts, Christopher Ford, Chris McKenna, Erik Sommers

...( Opis )...

Młody Peter Parker/Spider-Man (Tom Holland), poszukuje swojego nowego ego superbohatera. Zafascynowany przygodą z Avengersami, wraca do domu, gdzie mieszka wraz z ciotką May (Marisa Tomei). Cały czas pozostaje pod czujnym okiem swego mentora ? Tony?ego Starka (Robert Downey Jr.). Próbuje wrócić do normalnego życia, unikając myśli, że jest kimś więcej niż tylko "Spider-Manem z sąsiedztwa". Jednak kiedy pojawia się Vulture (Michael Keaton), nowy groźny wróg, wszystko, co dla Petera ważne, staje się zagrożone.

...( Obsada )...

? Tom Holland .... Peter Parker / Spider-Man
? Michael Keaton .... Adrian Toomes / Vulture
? Robert Downey Jr. .... Tony Stark / Iron Man
? Marisa Tomei .... May Parker
? Jon Favreau .... Happy Hogan
? Gwyneth Paltrow .... Pepper Potts
? Zendaya .... Michelle
? Donald Glover .... Aaron Davis

...( Dane Techniczne )...

Format : AVI
Format/Info : Audio Video Interleave
File size : 1.37 GiB
Duration : 2h 4mn
Overall bit rate : 1 575 Kbps
Writing library : VirtualDub build 32839/release

Video
ID : 0
Format : MPEG-4 Visual
Format profile : Advanced Simple@L5
Format settings, BVOP : 2
Format settings, QPel : Yes
Format settings, GMC : No warppoints
Format settings, Matrix : Default (H.263)
Muxing mode : Packed bitstream
Codec ID : XVID
Codec ID/Hint : XviD
Duration : 2h 4mn
Bit rate : 1 435 Kbps
Width : 720 pixels
Height : 304 pixels
Display aspect ratio : 2.35:1
Frame rate : 30.000 fps
Color space : YUV
Chroma subsampling : 4:2:0
Bit depth : 8 bits
Scan type : Progressive
Compression mode : Lossy
Bits/(Pixel*Frame) : 0.219
Stream size : 1.25 GiB (91%)
Writing library : XviD 67

Audio
ID : 1
Format : MPEG Audio
Format version : Version 1
Format profile : Layer 3
Mode : Joint stereo
Mode extension : MS Stereo
Codec ID : 55
Codec ID/Hint : MP3
Duration : 2h 4mn
Bit rate mode : Constant
Bit rate : 128 Kbps
Channel(s) : 2 channels
Sampling rate : 44.1 KHz
Compression mode : Lossy
Stream size : 114 MiB (8%)
Alignment : Split accross interleaves
Interleave, duration : 33 ms (1.00 video frame)

Pobrałeś/aś? Podziękuj! To nic nie kosztuje a Motywuje!!!
Dostępne napisy
Brak napisów
Szczegóły torrenta
Tracker http://bigfoot1942.sektori.org:6969/announce
Multitracker [ Pokaż ]
Kategoria: » » » [Zgłoś błąd]
Dodane 11-07-2017
Podziękowali:
0 użytkowników 
Podziękuj!
Pokaż / Ukryj pliki:
Nazwa pliku Rozmiar
Spider-Man.H0mec0ming.2017.CAM.READNFO.XViD-26k.avi 1.37 GB
1 plik
Brak komentarzy...