Enable / Włącz Javascript
 Widok 
 Kategorie 
 Nitro Torrent w sieci 
 Top 10 użytkowników 
 Latające potwory 3D(OU) - Flying Monsters 3D with David Attenborough *2011* [mini-HD.1080p.Half.Over-Under.AC3.BluRay.x264-SONDA] [Napisy PL]

Latające potwory 3D(OU) - Flying Monsters 3D with David Attenborough *2011* [mini-HD.1080p.Half.Over-Under.AC3.BluRay.x264-SONDA] [Napisy PL]
Kategoria: » » »
Dodane: 03/10/2017
Rozmiar: 3.99 GB
Uploader: suggestguide.review❱ Wędrowiec
seed(ów): 0
leecher(ów): 0
Pobrane: 23
Komentarzy: 0
Pobierz Torrent Pobierz Torrent
Pobierz [Magnet] Pobierz [Magnet]

Obserwuj
Raportuj
Film w wersji 3D Over-Under
Do odtworzenia filmu WYMAGANY odpowiedni sprzęt (TV 3D).
==========================================
UWAGA: Napisy na stałe wtopione w film. Zapraszam Wszystkich chętnych !!!!!!
=====================================================


Kopia mini-HD 1080p = 3,99 GB


gatunek: Dokumentalny
produkcja: Wielka Brytania
premiera: 6 maja 2011 (świat)
reżyseria: Matthew Dyas
scenariusz: David Attenborough

http://www.imdb.com/title/tt1777610/
http://www.filmweb.pl/film/Flying+Monsters+3D+with+David+Attenborough-2011-630687


Obsada:

David Attenborough
Douglas A. Lawson

Opis:

Od tysięcy lat ludzie wierzyli, że istnieją latające potwory. Istniały również mitologie na ich temat obiegające cały świat. Ale czy one naprawdę istnieją? 220 milionów lat temu dinozaury dominowały na Ziemi. Inna grupa gadów powstała tworząc ogromny przeskok.Mięsożerne pterozaury zaczęły przejmować kontrolę nad niebem. Istoty te były pierwszymi latającymi kręgowcami , które osiągały nawet 40 stóp rozpiętość skrzydeł, jest to wielkość odrzutowca!

Screeny:

[Oryginalny obrazek]
[Oryginalny obrazek]
[Oryginalny obrazek]

[Oryginalny obrazek]

[Oryginalny obrazek]

[Oryginalny obrazek]



General
Format                                   : Matroska
Format version                           : Version 2
File size                                : 3.99 GiB
Duration                                 : 1h 10mn
Overall bit rate                         : 8 088 Kbps
Movie name                               : FLYING_MONSTERS_3D.miniHD.1080p.PLSUBBED.Bluray3D [Rip by Sonda AT-Team]
Encoded date                             : UTC 2014-10-19 11:35:44
Writing application                      : mkvmerge v5.7.0 ('The Whirlwind') built on Jul  8 2012 20:08:51
Writing library                          : libebml v1.2.3 + libmatroska v1.3.0

Video
ID                                       : 1
Format                                   : AVC
Format/Info                              : Advanced Video Codec
Format profile                           : High@L4.1
Format settings, CABAC                   : Yes
Format settings, ReFrames                : 2 frames
Codec ID                                 : V_MPEG4/ISO/AVC
Duration                                 : 1h 10mn
Bit rate                                 : 7 287 Kbps
Width                                    : 1 920 pixels
Height                                   : 1 080 pixels
Display aspect ratio                     : 1.78:1
Frame rate mode                          : Constant
Frame rate                               : 23.976 fps
Color space                              : YUV
Chroma subsampling                       : 4:2:0
Bit depth                                : 8 bits
Scan type                                : Progressive
Bits/(Pixel*Frame)                       : 0.147
Stream size                              : 3.60 GiB (90%)
Title                                    : Rip by Sonda PLSUBBED
Writing library                          : x264 core
Default                                  : Yes
Forced                                   : No
Color primaries                          : BT.709
Transfer characteristics                 : BT.709
Matrix coefficients                      : BT.709

Audio
ID                                       : 2
Format                                   : AC-3
Format/Info                              : Audio Coding 3
Mode extension                           : CM (complete main)
Format settings, Endianness              : Big
Codec ID                                 : A_AC3
Duration                                 : 1h 10mn
Bit rate mode                            : Constant
Bit rate                                 : 640 Kbps
Channel(s)                               : 6 channels
Channel positions                        : Front: L C R, Side: L R, LFE
Sampling rate                            : 48.0 KHz
Bit depth                                : 16 bits
Compression mode                         : Lossy
Stream size                              : 323 MiB (8%)
Title                                    : AC3 5.1 Original
Language                                 : English
Default                                  : Yes
Forced                                   : No

Menu
00:00:00.000                             : en:(01)00:00:00:000
00:05:00.000                             : en:(02)00:05:00:000
00:10:00.000                             : en:(03)00:10:00:000
00:15:00.000                             : en:(04)00:15:00:000
00:20:00.000                             : en:(05)00:20:00:000
00:25:00.000                             : en:(06)00:25:00:000
00:30:00.000                             : en:(07)00:30:00:000
00:35:00.000                             : en:(08)00:35:00:000
00:40:00.000                             : en:(09)00:40:00:000
00:45:00.000                             : en:(10)00:45:00:000
00:50:00.000                             : en:(11)00:50:00:000
00:55:00.000                             : en:(12)00:55:00:000
01:00:00.000                             : en:(13)01:00:00:000
01:05:00.000                             : en:(14)01:05:00:000
01:10:00.000                             : en:(15)01:10:00:000


Source:
A/V-BD3D
PLSUBBED - SONDA



Dostępne napisy
Brak napisów
Szczegóły torrenta
Tracker http://tracker.aletorrenty.pl:2710/announce
Multitracker [ Pokaż ]
Kategoria: » » » [Zgłoś błąd]
Dodane 03-10-2017
Podziękowali:
0 użytkowników 
Podziękuj!
Pokaż / Ukryj pliki:
Nazwa pliku Rozmiar
FLYING_MONSTERS_3D.miniHD.1080p.PLSUBBED(Sonda).mkv 3.99 GB
AT-TEAM old movie.jpg 140.78 KB
42028_front.jpg 138.63 KB
AT-TEAM.jpg 36.66 KB
Read iNFO.txt 2.07 KB
Ale Torrenty Team enjoy !.url 0.11 KB
6 plików
Brak komentarzy...