Enable / Włącz Javascript
 Widok 
 Kategorie 
 Nitro Torrent w sieci 
 Top 10 użytkowników 
 Książę Persji: Piaski Czasu - Prince of Persia The Sands of Time (2010) TS XViD IMAGiNE [ENG]

Książę Persji: Piaski Czasu - Prince of Persia The Sands of Time (2010) TS XViD IMAGiNE [ENG]
Kategoria: » » »
Dodane: 03/10/2017
Rozmiar: 1.40 GB
Uploader: tomysparow559 (10)
seed(ów): 0
leecher(ów): 0
Pobrane: -
Komentarzy: 0
Pobierz Torrent Pobierz Torrent
Pobierz [Magnet] Pobierz [Magnet]

Obserwuj
Raportuj
produkcja: USA
gatunek: Fantasy, Przygodowy
premiera: 21 maja 2010 (Polska) 9 maja 2010 (Świat)
reżyseria: Mike Newell
scenariusz: Boaz Yakin, Carlo Bernard
muzyka: Harry Gregson-Williams
zdjęcia: John Seale
na podstawie: Jordan Mechner "Książę Persji" (gra wideo)
dystrybucja: Forum Film Poland Sp. z o o

Opis:
VI wiek, Persja. Główny bohater - młody książę, w czasie jednej z wojennych wypraw natrafia na ostrze posiadające potężne magiczne możliwości i tajemniczą klepsydrę kryjącą w sobie Piaski Czasu, które mogą zamieniać ludzi w piaskowe potwory.

http://www.filmweb.pl/film/Ksi%C4%85%C5%BC%C4%99+Persji+Piaski+Czasu-2010-260505

Obsada:
Jake Gyllenhaal......Dastan
Gemma Arterton.......Tamina
Ben Kingsley.........Nizam
Alfred Molina........Szejk Amar

----------------------------------------------------------------------------------------------

DETAILS:

Video

Format: MPEG-4 Visual
Format profile: Streaming Video@L1
Format settings, BVOP: Yes
Format settings, QPel: No
Format settings, GMC: No warppoints
Format settings, Matrix: Default
Muxing mode: Packed bitstream
Codec ID: XVID
Codec ID/Hint: XviD
Duration: 1h 43mn
Bit rate: 1 759 Kbps
Width: 640 pixels
Height: 272 pixels
Display aspect ratio: 2.35
Frame rate: 25.000 fps
Resolution: 24 bits
Colorimetry: 4:2:0
Scan type: Progressive
Bits/(Pixel*Frame): 0.404
Stream size: 1.28 GiB (93%)
Writing library: XviD 50

Audio

Format: MPEG Audio
Format version: Version 1
Format profile: Layer 3
Codec ID: 55
Codec ID/Hint: MP3
Duration: 1h 43mn
Bit rate mode: Constant
Bit rate: 128 Kbps
Channel(s): 2 channels
Sampling rate: 44.1 KHz
Resolution: 16 bits
Video delay: 9ms
Stream size: 94.9 MiB (7%)
Alignment: Split accross interleaves
Interleave, duration: 40 ms (1.00 video
[Oryginalny obrazek]
[Oryginalny obrazek]
[Oryginalny obrazek]
[Oryginalny obrazek]
[Oryginalny obrazek]




Dostępne napisy
Brak napisów
Szczegóły torrenta
Tracker http://tracker.openbittorrent.com/announce
Multitracker [ Pokaż ]
Kategoria: » » » [Zgłoś błąd]
Dodane 03-10-2017
Podziękowali:
0 użytkowników 
Podziękuj!
Pokaż / Ukryj pliki:
Nazwa pliku Rozmiar
Prince of Persia The Sands of Time TS XViD IMAGiNE.avi 1.38 GB
release info.txt 4.81 KB
sample.avi 19.49 MB
Torrent downloaded from AhaShare.com.txt 0.06 KB
Torrent downloaded from ExtraTorrent.com.txt 0.05 KB
Torrent downloaded from Kingdom-KVCD.net.txt 0.05 KB
Torrent downloaded from thepiratebay.org.txt 0.05 KB
7 plików
Brak komentarzy...