Enable / Włącz Javascript
 Widok 
 Kategorie 
 Nitro Torrent w sieci 
 Top 10 użytkowników 
 Kraina niedźwiedzi - Terre Des Ours 3D (2013) [BRRip.1080p.x265-HEVC.AC3] [Napisy PL] [ENG]

Kraina niedźwiedzi - Terre Des Ours 3D (2013) [BRRip.1080p.x265-HEVC.AC3] [Napisy PL] [ENG]
Kategoria: » » »
Dodane: 03/10/2017
Rozmiar: 3.23 GB
Uploader: suggestguide.review❱ Wędrowiec
seed(ów): 0
leecher(ów): 0
Pobrane: 2
Komentarzy: 0
Pobierz Torrent Pobierz Torrent
Pobierz [Magnet] Pobierz [Magnet]

Obserwuj
Raportuj
[Oryginalny obrazek]


http://www.filmweb.pl/film/Kraina+nied%C5%BAwiedzi-2013-698736
http://www.imdb.com/title/tt2705326/

Film w wersji 3D Half Over/Under.

reżyseria: Guillaume Vincent
gatunek: Dokumentalny
produkcja: Francja
premiera: 5-01-2014
muzyka: C??cile Corbel
zdjęcia: Lionel San-Kenguistel
czas: 01:18:46

opis:

Set in the wilderness of the Kamchatka Peninsula, the land of legends and the kingdom of wild brown bears, we follow the daily adventures of five wild brown bears. A mother bear and her two young ones, an adolescent male and an experienced male leader. Each of them have their own concerns and preoccupations. The mother must feed and protect her cubs, whilst all they want
is to explore the big wide world out there, unaware of the dangers that lie ahead of them. The adolescent is coming of age and must find his place in the adult world, whereas the experienced male must constantly defend his supremacy and impose his strength.

Wspaniała opowieść w 3D, o życiu najpotężniejszych zwierząt na Kamczatce - Niedźwiedzi Brunatnych.

[Oryginalny obrazek]

[Oryginalny obrazek]

[Oryginalny obrazek]

[Oryginalny obrazek]


obsada:

French - Marion Cotillard (narrator)
Englisch - David Gasman (narrator)

dane techniczne:

Terre des ours 3D (2013)-alE13.mkv
Format : Matroska
Format version : Version 4 / Version 2
File size : 2.85 GiB
Duration : 1h 26mn
Overall bit rate : 4 727 Kbps
Movie name : Terre des ours 3D (2013)-alE13
Encoded date : UTC 2015-05-26 10:47:51
Writing application : mkvmerge v7.9.0 ('Birds') 64bit
Writing library : libebml v1.3.1 + libmatroska v1.4.2
DURATION : 01:18:46.470000000
NUMBER_OF_FRAMES : 436
NUMBER_OF_BYTES : 2424049
_STATISTICS_WRITING_APP : mkvmerge v7.9.0 ('Birds') 64bit
_STATISTICS_WRITING_DATE_UT : 2015-05-26 10:47:51
_STATISTICS_TAGS : BPS DURATION NUMBER_OF_FRAMES NUMBER_OF_BYTES

Video
ID : 1
Format : HEVC
Format/Info : High Efficiency Video Coding
Format profile : Main@L4.0
Codec ID : V_MPEGH/ISO/HEVC
Duration : 1h 26mn
Bit rate : 3 353 Kbps
Width : 1 920 pixels
Height : 1 080 pixels
Display aspect ratio : 16:9
Frame rate mode : Constant
Frame rate : 23.976 fps
Color space : YUV
Chroma subsampling : 4:2:0
Bit depth : 8 bits
Bits/(Pixel*Frame) : 0.067
Stream size : 2.02 GiB (71%)
Title : Terre des ours 3D (2013)-alE13
Default : Yes
Forced : No
DURATION : 01:26:11.776000000
NUMBER_OF_FRAMES : 161618
NUMBER_OF_BYTES : 413742080
_STATISTICS_WRITING_APP : mkvmerge v7.9.0 ('Birds') 64bit
_STATISTICS_WRITING_DATE_UT : 2015-05-26 10:47:51
_STATISTICS_TAGS : BPS DURATION NUMBER_OF_FRAMES NUMBER_OF_BYTES

Audio #1
ID : 2
Format : AC-3
Format/Info : Audio Coding 3
Mode extension : CM (complete main)
Format settings, Endianness : Big
Codec ID : A_AC3
Duration : 1h 26mn
Bit rate mode : Constant
Bit rate : 640 Kbps
Channel(s) : 6 channels
Channel positions : Front: L C R, Side: L R, LFE
Sampling rate : 48.0 KHz
Bit depth : 16 bits
Compression mode : Lossy
Stream size : 395 MiB (14%)
Title : Terre des ours 3D (2013)-alE13
Language : English
Default : No
Forced : No

Audio #2
ID : 3
Format : AC-3
Format/Info : Audio Coding 3
Mode extension : CM (complete main)
Format settings, Endianness : Big
Codec ID : A_AC3
Duration : 1h 26mn
Bit rate mode : Constant
Bit rate : 640 Kbps
Channel(s) : 6 channels
Channel positions : Front: L C R, Side: L R, LFE
Sampling rate : 48.0 KHz
Bit depth : 16 bits
Compression mode : Lossy
Stream size : 395 MiB (14%)
Title : Terre des ours 3D (2013)-alE13
Language : French
Default : Yes
Forced : No

Text
ID : 4
Format : VobSub
Muxing mode : zlib
Codec ID : S_VOBSUB
Codec ID/Info : The same subtitle format used on DVDs
Title : Terre des ours 3D (2013)-alE13
Language : Polish
Default : Yes
Forced : No


torrent pobrano z http://*censored*


Dostępne napisy
Brak napisów
Szczegóły torrenta
Tracker http://tracker.aletorrenty.pl:2710/announce
Multitracker [ Pokaż ]
Kategoria: » » » [Zgłoś błąd]
Dodane 03-10-2017
Podziękowali:
0 użytkowników 
Podziękuj!
Pokaż / Ukryj pliki:
Nazwa pliku Rozmiar
Terre des ours 3D (2013)-alE13.mkv 2.85 GB
Land Of TheBears (2013)-alE13_fre.ac3 394.56 MB
subtitles/subtitles.rar 1.59 MB
info/Nostalgie.jpg 138.36 KB
txt.jpg 103.13 KB
poster.jpg 82.56 KB
1.jpg 62.92 KB
info/Torrent downloaded from alE13 torrents at BTScene.org.txt 0.12 KB
info/Torrent downloaded from demonoid.pw.txt 0.04 KB
9 plików
Brak komentarzy...