Enable / Włącz Javascript
 Widok 
 Kategorie 
 Nitro Torrent w sieci 
 Top 10 użytkowników 
 IMAX: Wielki Kanion 3D (OU) - Grand Canyon (2008) [mini-HD 1080p Over-Under AC3 x264-LEON 345] [ENG] [Napisy PL]

IMAX: Wielki Kanion 3D (OU) - Grand Canyon (2008) [mini-HD 1080p Over-Under AC3 x264-LEON 345] [ENG] [Napisy PL]
Kategoria: » » »
Dodane: 03/10/2017
Rozmiar: 2.46 GB
Uploader: tomysparow559 (10)
seed(ów): 0
leecher(ów): 0
Pobrane: 7
Komentarzy: 0
Pobierz Torrent Pobierz Torrent
Pobierz [Magnet] Pobierz [Magnet]

Obserwuj
Raportuj
Film w wersji 3D OVER-UNDER
Do odtworzenia filmu WYMAGANY odpowiedni sprzęt (TV 3D).

==================================================
WSTAWKA NA PROŚBE Carrot
=================================================
Kopia mini-HD 1080p = 2,45 GB

produkcja: 2008
gatunek: dokumentalny, krajobrazowy

Film ukazuje Grand Canyon, jeden z najbardziej znanych krajobrazów w Ameryce. Zapierające dech w piersiach krajobrazy dzikiej przyrody, fantastyczne zdjęcia z lotu ptaka ukazujący majestat Colorado i Grand Canyon. Całość oprawiona w komentarz Roberta Redforda i piękną muzyką Dave Matthews Band

General
Complete name : E:FilmyFilmy 3DSBS 3DWielki Kanion 3D(Leon 345)GRAND CANYON ADVENTURE 3D(Leon 345).mkv
Format : Matroska
File size : 2.46 GiB
Duration : 44mn 48s
Overall bit rate : 7 849 Kbps
Movie name : GRAND_CANYON_ADVENTURE_3D.Title0.Bluray3DRip
Encoded date : UTC 2012-05-07 03:08:46
Writing application : DVDFab
Writing library : libebml v0.7.8 + libmatroska v0.8.1

Video
ID : 1
Format : AVC
Format/Info : Advanced Video Codec
Format profile : High@L5.1
Format settings, CABAC : Yes
Format settings, ReFrames : 2 frames
Muxing mode : Container profile=Unknown@5.1
Codec ID : V_MPEG4/ISO/AVC
Duration : 44mn 45s
Bit rate : 7 245 Kbps
Width : 1 920 pixels
Height : 1 080 pixels
Display aspect ratio : 16:9
Frame rate : 23.976 fps
Resolution : 8 bits
Colorimetry : 4:2:0
Scan type : Progressive
Bits/(Pixel*Frame) : 0.146
Stream size : 2.27 GiB (92%)
Writing library : x264 core
Color primaries : BT.709-5, BT.1361, IEC 61966-2-4, SMPTE RP177
Transfer characteristics : BT.709-5, BT.1361
Matrix coefficients : BT.709-5, BT.1361, IEC 61966-2-4 709, SMPTE RP177

Audio
ID : 2
Format : AC-3
Format/Info : Audio Coding 3
Codec ID : A_AC3
Duration : 44mn 48s
Bit rate mode : Constant
Bit rate : 448 Kbps
Channel(s) : 6 channels
Channel positions : Front: L C R, Side: L R, LFE
Sampling rate : 48.0 KHz
Stream size : 144 MiB (6%)

Menu
00:00:00.000 : en:(01)00:00:00:000
00:00:12.012 : en:(02)00:00:12:012
00:03:27.999 : en:(03)00:03:27:999
00:05:36.252 : en:(04)00:05:36:252
00:07:22.483 : en:(05)00:07:22:483
00:11:27.937 : en:(06)00:11:27:937
00:13:59.755 : en:(07)00:13:59:755
00:15:44.526 : en:(08)00:15:44:526
00:17:54.073 : en:(09)00:17:54:073
00:19:54.151 : en:(10)00:19:54:151
00:23:42.087 : en:(11)00:23:42:087
00:26:45.562 : en:(12)00:26:45:562
00:30:18.233 : en:(13)00:30:18:233
00:33:08.528 : en:(14)00:33:08:528
00:37:51.018 : en:(15)00:37:51:018
00:38:28.723 : en:(16)00:38:28:723
00:40:12.993 : en:(17)00:40:12:993
00:41:07.339 : en:(18)00:41:07:339
00:42:20.913 : en:(19)00:42:20:913
00:44:47.685 : en:(20)00:44:47:685

Leon 345
Dostępne napisy
Brak napisów
Szczegóły torrenta
Tracker http://i.bandito.org/announce
Multitracker [ Pokaż ]
Kategoria: » » » [Zgłoś błąd]
Dodane 03-10-2017
Podziękowali:
0 użytkowników 
Podziękuj!
Pokaż / Ukryj pliki:
Nazwa pliku Rozmiar
Napisy/GRAND CANYON ADVENTURE 3D(Leon 345).srt 29.96 KB
Napisy/GRAND CANYON ADVENTURE 3D(Leon 345).txt 20.23 KB
GRAND CANYON ADVENTURE 3D(Leon 345).mkv 2.46 GB
2eea539fab16875395d36c1a0d9c1c8f.jpg 176.83 KB
Poradnik Leona do filmów 3D.txt 18.35 KB
info.url 0.11 KB
6 plików
Brak komentarzy...