Enable / Włącz Javascript
 Widok 
 Kategorie 
 Nitro Torrent w sieci 
 Top 10 użytkowników 
 IMAX - Hubble 3D (OU) (2010) [mini-HD 1080p Over-Under AC3 x264-LEON 345] [Napisy PL]

IMAX - Hubble 3D (OU) (2010) [mini-HD 1080p Over-Under AC3 x264-LEON 345] [Napisy PL]
Kategoria: » » »
Dodane: 03/10/2017
Rozmiar: 1.65 GB
Uploader: tomysparow559 (10)
seed(ów): 0
leecher(ów): 0
Pobrane: 10
Komentarzy: 0
Pobierz Torrent Pobierz Torrent
Pobierz [Magnet] Pobierz [Magnet]

Obserwuj
Raportuj
Film w wersji 3D Over-Under.
Do odtworzenia filmu WYMAGANY odpowiedni sprzęt (TV 3D).

Kopia mini-HD 1080p = tylko 1,65 GB

gatunek: Dokumentalny
premiera: 17 września 2010 (Polska) 19 marca 2010 (Świat)
produkcja: Kanada

W maju 2009r, prom kosmiczny Atlantis, wyruszył na misję naprawy oraz rozbudowy pierwszego w historii, kosmicznego teleskopu Hubble.
Kamery IMAX zarejestrowały to wyjątkowe wydarzenie. Zobacz gdzie sięgają obiektywy teleskopu Hubble.

Kopie 3D SBS(OU) mini-HD, to kopie specjalistyczne o dużej rozdzielczości (1920 x 1080 ), które mimo niewielkiego ciężaru (w MB) zachowują wysoką jakość.

Szczególnie polecam tym, którzy chcą zaoszczędzić czas i przestrzeń na dysku.

Taką kopię można także bez problemu nagrać na zwykłą płytę DVD lub przenieś na zewnętrzną pamięć.

Ważne jest również to, że tą wersję mogą obejrzeć osoby, których sprzęt ma ograniczenia w postaci obsługi tylko formatu FAT, jak wiadomo taki format obsłuży filmy, które mają maksymalnie 4GB, więc w tym przypadku ta wersja jest też dla nich.

TĄ KOPIE WYKONAŁ LEON 345 SPECJALNIE DLA WAS

General
Complete name : E:FilmyFilmy 3DSBS 3DIMAX - Hubble 3D(Leon 345)HUBBLE_3D (Leon 345).mkv
Format : Matroska
File size : 1.65 GiB
Duration : 43mn 59s
Overall bit rate : 5 379 Kbps
Movie name : HUBBLE_3D_RUS.Title1001.Bluray3DRip
Encoded date : UTC 2012-04-02 09:49:20
Writing application : DVDFab
Writing library : libebml v0.7.8 + libmatroska v0.8.1

Video
ID : 1
Format : AVC
Format/Info : Advanced Video Codec
Format profile : High@L5.1
Format settings, CABAC : Yes
Format settings, ReFrames : 2 frames
Muxing mode : Container profile=Unknown@5.1
Codec ID : V_MPEG4/ISO/AVC
Duration : 43mn 56s
Bit rate : 4 824 Kbps
Width : 1 920 pixels
Height : 1 080 pixels
Display aspect ratio : 16:9
Frame rate : 23.976 fps
Resolution : 8 bits
Colorimetry : 4:2:0
Scan type : Progressive
Bits/(Pixel*Frame) : 0.097
Stream size : 1.48 GiB (90%)
Writing library : x264 core
Color primaries : BT.709-5, BT.1361, IEC 61966-2-4, SMPTE RP177
Transfer characteristics : BT.709-5, BT.1361
Matrix coefficients : BT.709-5, BT.1361, IEC 61966-2-4 709, SMPTE RP177

Audio
ID : 2
Format : AC-3
Format/Info : Audio Coding 3
Codec ID : A_AC3
Duration : 43mn 59s
Bit rate mode : Constant
Bit rate : 448 Kbps
Channel(s) : 6 channels
Channel positions : Front: L C R, Side: L R, LFE
Sampling rate : 48.0 KHz
Stream size : 141 MiB (8%)

Menu
00:00:00.000 : en:(01)00:00:00:000
00:09:57.597 : en:(02)00:09:57:597
00:20:22.721 : en:(03)00:20:22:721
00:30:20.944 : en:(04)00:30:20:944
00:42:01.268 : en:(05)00:42:01:268
00:43:59.637 : en:(06)00:43:59:637

torrent pobrano z http://*censored*
Dostępne napisy
Brak napisów
Szczegóły torrenta
Tracker http://i.bandito.org/announce
Multitracker [ Pokaż ]
Kategoria: » » » [Zgłoś błąd]
Dodane 03-10-2017
Podziękowali:
0 użytkowników 
Podziękuj!
Pokaż / Ukryj pliki:
Nazwa pliku Rozmiar
HUBBLE_3D (Leon 345).mkv 1.65 GB
HUBBLE_3D (Leon 345).srt 36.75 KB
HUBBLE_3D (Leon 345).sub 26.86 KB
HUBBLE_3D (Leon 345).txt 24.96 KB
Poradnik Leona do filmów 3D.txt 17.69 KB
info.url 0.11 KB
6 plików
Brak komentarzy...