Enable / Włącz Javascript
 Widok 
 Kategorie 
 Nitro Torrent w sieci 
 Top 10 użytkowników 
  Ghosts of the Abyss 3D (2003)[BRRip. 1080p x264 by alE13 AC3] [Napisy PL] [ENG]

Ghosts of the Abyss 3D (2003)[BRRip. 1080p x264 by alE13 AC3] [Napisy PL] [ENG]
Kategoria: » » »
Dodane: 03/10/2017
Rozmiar: 7.89 GB
Uploader: tomysparow559 (10)
seed(ów): 0
leecher(ów): 0
Pobrane: 7
Komentarzy: 0
Pobierz Torrent Pobierz Torrent
Pobierz [Magnet] Pobierz [Magnet]

Obserwuj
Raportuj
Film w wersji 3D Half-Over/Under.

reżyseria: James Cameron
gatunek: Dokumentalny
produkcja: USA
premiera: 31-03-2003
muzyka:         Joel McNeely, Lisa Torban
zdjęcia:        D.J. Roller
czas:           1h 0mn

opis:

James Cameron and Bill Paxton, director and actor of the 1997 film Titanic, travel to the final
undersea resting place of the ill-fated ship of dreams.

Zrealizowany w technice 3D dokumentalny zapis sześ*censored*godniowej podwodnej ekspedycji do wraku Titanika.

Click on image for full size view.

Click on image for full size view.

Click on image for full size view.

Click on image for full size view.


obsada:

Bill Paxton, James Cameron, Lori Johnston, Lewis Abernathy

dane techniczne:

Ghosts of the Abyss 3D (2003)-alE13.mkv
Format                      : Matroska
Format version              : Version 4 / Version 2
File size                   : 7.81 GiB
Duration                    : 1h 0mn
Overall bit rate            : 18.4 Mbps
Movie name                  : Ghosts of the Abyss 3D (2003)-alE13
Encoded date                : UTC 2016-05-31 05:48:20
Writing application         : mkvmerge v8.1.0 ('Psychedelic Postcard') 64bit
Writing library             : libebml v1.3.1 + libmatroska v1.4.2

Video
ID                          : 1
Format                      : AVC
Format/Info                 : Advanced Video Codec
Format profile              : High@L4.1
Format settings, CABAC      : Yes
Format settings, ReFrames   : 2 frames
Codec ID                    : V_MPEG4/ISO/AVC
Duration                    : 1h 0mn
Bit rate                    : 17.7 Mbps
Width                       : 1 920 pixels
Height                      : 1 080 pixels
Display aspect ratio        : 16:9
Frame rate mode             : Constant
Frame rate                  : 23.976 (24000/1001) fps
Color space                 : YUV
Chroma subsampling          : 4:2:0
Bit depth                   : 8 bits
Scan type                   : Progressive
Bits/(Pixel*Frame)          : 0.357
Stream size                 : 7.53 GiB (96%)
Title                       : Ghosts of the Abyss 3D (2003)-alE13
Writing library             : x264 core 142
Default                     : Yes
Forced                      : No
Color range                 : Limited
Color primaries             : BT.709
Transfer characteristics    : BT.709
Matrix coefficients         : BT.709

Audio
ID                          : 2
Format                      : AC-3
Format/Info                 : Audio Coding 3
Mode extension              : CM (complete main)
Format settings, Endianness : Big
Codec ID                    : A_AC3
Duration                    : 1h 0mn
Bit rate mode               : Constant
Bit rate                    : 640 Kbps
Channel(s)                  : 6 channels
Channel positions           : Front: L C R, Side: L R, LFE
Sampling rate               : 48.0 KHz
Frame rate                  : 31.250 fps (1536 spf)
Compression mode            : Lossy
Stream size                 : 278 MiB (3%)
Title                       : Ghosts of the Abyss 3D (2003)-alE13_AC3
Language                    : English
Default                     : No
Forced                      : No

Text #1
ID                          : 3
Format                      : VobSub
Muxing mode                 : zlib
Codec ID                    : S_VOBSUB
Codec ID/Info               : Picture based subtitle format used on DVDs
Duration                    : 58mn 37s
Bit rate                    : 11.5 Kbps
Count of elements           : 862
Stream size                 : 4.84 MiB (0%)
Title                       : Ghosts of the Abyss 3D (2003)-alE13
Language                    : Polish
Default                     : Yes
Forced                      : No

Text #2
ID                          : 4
Format                      : UTF-8
Codec ID                    : S_TEXT/UTF8
Codec ID/Info               : UTF-8 Plain Text
Duration                    : 58mn 37s
Bit rate                    : 78 bps
Count of elements           : 862
Stream size                 : 33.6 KiB (0%)
Title                       : Ghosts of the Abyss 3D (2003)-alE13
Language                    : Polish
Default                     : No
Forced                      : No

Dostępne napisy
Brak napisów
Szczegóły torrenta
Tracker http://tracker.aletorrenty.pl:2710/announce
Multitracker [ Pokaż ]
Kategoria: » » » [Zgłoś błąd]
Dodane 03-10-2017
Podziękowali:
0 użytkowników 
Podziękuj!
Pokaż / Ukryj pliki:
Nazwa pliku Rozmiar
info/2.jpg 1.64 MB
info/1.jpg 611.12 KB
info/Nostalgie.jpg 138.36 KB
info/Torrent downloaded from alE13 torrents at BTScene.org.txt 0.12 KB
info/Torrent downloaded from demonoid.pw.txt 0.04 KB
info/Torrent downloaded from - www.aletorrenty.pl 0.04 KB
subtitles/Ghosts of the Abyss 3D (2003)-alE13.rar 3.48 MB
Ghosts of the Abyss 3D (2003)-alE13.mkv 7.81 GB
sample.mkv 80.29 MB
poster.jpg 134.08 KB
txt.jpg 107.21 KB
11 plików
Brak komentarzy...